电视剧之家论坛

 找回密码
 立即注册
搜索
热搜: 免费
查看: 11640|回复: 20

[2009][无台标][蜗居 全33集][1080P-Netflix版/78G][国语 简繁英软字幕][MKV][海清/李念/郝平/文章/张嘉译][百度]

[复制链接]
发表于 2018-7-16 16:56:00 | 显示全部楼层 |阅读模式


◎译  名 DwellingNarrowness
◎片  名 蜗居
◎年  代 2009
◎产  地 中国大陆
◎类  别 剧情/爱情/家庭
◎语  言 汉语普通话
◎上映日期 2009-11-16(中国大陆)
◎IMDb评分  7.2/10 from 62 users
◎IMDb链接  http://www.imdb.com/title/tt1557776/
◎豆瓣评分 7.9/10 from 63,351 users
◎豆瓣链接 https://movie.douban.com/subject/3609075/
◎集  数 33
◎片  长 40分钟
◎导  演 滕华涛 Hua-Tao Teng
◎主  演 海清 Hai-Qing
      李念 Nian Li
      郝平 Ping Hao
      文章 Zhang Wen
      张嘉译 Jiayi Zhang
      邬君梅 Vivian Wu
      冯嘉怡 Jiayi Feng
      吴玉芳 Yufang Wu
      宗晓军 Xiao-jun Zong
      铃木美妃 Miki Suzuki

◎简  介

  苏淳与郭海萍(海清 饰)夫妻感情甚笃,但因钱少难以在江州买房,只得暂住弄堂。海萍极力想改变困境,但苦于房价压力,即使产下一女,也只得送回家乡由父母代为抚养。海萍的妹妹海藻(李念 饰)大学毕业后,与公司职员小贝(文章 饰)相恋,两人也感受到攒钱买房的辛酸。因为工作关系,海藻结识了市长秘书宋思明(张嘉译 饰),后者对她一见倾心,并多次帮助海藻及其姐脱离困境。海藻为了报答,跟他有染,一发而不可收拾。期间,海萍曾多次劝说海藻,不要辜负小贝的一片痴情,但是海藻为了帮助姐姐达成心愿,还是委身于宋思明,做了他的小3。后来,东窗事发后,宋思明的妻子(邬君梅 饰)前来跟海藻示威,咄咄逼人,海藻倍感屈辱。当晚,宋思明前来安慰海藻,然而二人亲密的情景却偏偏被小贝逮了正着……
  本片根据女作家六六的同名小说《蜗居》改编。

  1. Format                                   : Matroska
  2. Format version                           : Version 4 / Version 2
  3. File size                                : 2.40 GiB
  4. Duration                                 : 45mn 6s
  5. Overall bit rate mode                    : Variable
  6. Overall bit rate                         : 7 623 Kbps
  7. Encoded date                             : UTC 2018-07-08 01:03:47
  8. Writing application                      : mkvmerge v16.0.0 (‘Protest‘) 32-bit
  9. Writing library                          : libebml v1.3.5 + libmatroska v1.4.8

  10. Video
  11. ID                                       : 1
  12. Format                                   : AVC
  13. Format/Info                              : Advanced Video Codec
  14. Format profile                           : Main@L4
  15. Format settings, CABAC                   : Yes
  16. Format settings, ReFrames                : 3 frames
  17. Codec ID                                 : V_MPEG4/ISO/AVC
  18. Duration                                 : 45mn 6s
  19. Bit rate mode                            : Variable
  20. Bit rate                                 : 7 500 Kbps
  21. Maximum bit rate                         : 11.2 Mbps
  22. Width                                    : 1 920 pixels
  23. Height                                   : 1 080 pixels
  24. Display aspect ratio                     : 16:9
  25. Frame rate mode                          : Constant
  26. Frame rate                               : 25.000 fps
  27. Color space                              : YUV
  28. Chroma subsampling                       : 4:2:0
  29. Bit depth                                : 8 bits
  30. Scan type                                : Progressive
  31. Bits/(Pixel*Frame)                       : 0.145
  32. Stream size                              : 2.36 GiB (98%)
  33. Writing library                          : x264 core 118
  34. Encoding settings                        : cabac=1 / ref=3 / deblock=1:0:0 / analyse=0x1:0x111 / me=umh / subme=10 / psy=1 / psy_rd=1.00:0.00 / mixed_ref=1 / me_range=24 / chroma_me=1 / trellis=2 / 8x8dct=0 / cqm=0 / deadzone=21,11 / fast_pskip=1 / chroma_qp_offset=-2 / threads=6 / sliced_threads=0 / nr=0 / decimate=1 / interlaced=0 / bluray_compat=0 / constrained_intra=0 / bframes=2 / b_pyramid=0 / b_adapt=2 / b_bias=0 / direct=3 / weightb=1 / open_gop=0 / weightp=2 / keyint=50 / keyint_min=26 / scenecut=0 / intra_refresh=0 / rc_lookahead=0 / rc=2pass / mbtree=1 / bitrate=7500 / ratetol=1.0 / qcomp=0.50 / qpmin=6 / qpmax=51 / qpstep=4 / cplxblur=20.0 / qblur=0.5 / vbv_maxrate=11250 / vbv_bufsize=15000 / nal_hrd=vbr / ip_ratio=1.40 / aq=1:1.00
  35. Default                                  : Yes
  36. Forced                                   : No

  37. Audio
  38. ID                                       : 2
  39. Format                                   : E-AC-3
  40. Format/Info                              : Audio Coding 3
  41. Format settings, Endianness              : Big
  42. Codec ID                                 : A_EAC3
  43. Duration                                 : 45mn 6s
  44. Bit rate mode                            : Constant
  45. Bit rate                                 : 128 Kbps
  46. Channel(s)                               : 2 channels
  47. Channel positions                        : Front: L R
  48. Sampling rate                            : 48.0 KHz
  49. Frame rate                               : 187.500 fps (256 spf)
  50. Compression mode                         : Lossy
  51. Stream size                              : 41.3 MiB (2%)
  52. Title                                    : Mandarin
  53. Language                                 : Chinese
  54. Default                                  : Yes
  55. Forced                                   : No

  56. Text #1
  57. ID                                       : 3
  58. Format                                   : UTF-8
  59. Codec ID                                 : S_TEXT/UTF8
  60. Codec ID/Info                            : UTF-8 Plain Text
  61. Duration                                 : 42mn 58s
  62. Bit rate                                 : 81 bps
  63. Count of elements                        : 572
  64. Stream size                              : 25.6 KiB (0%)
  65. Language                                 : English
  66. Default                                  : No
  67. Forced                                   : No

  68. Text #2
  69. ID                                       : 4
  70. Format                                   : UTF-8
  71. Codec ID                                 : S_TEXT/UTF8
  72. Codec ID/Info                            : UTF-8 Plain Text
  73. Duration                                 : 39mn 49s
  74. Bit rate                                 : 72 bps
  75. Count of elements                        : 537
  76. Stream size                              : 21.1 KiB (0%)
  77. Title                                    : Simplified
  78. Language                                 : Chinese
  79. Default                                  : No
  80. Forced                                   : No

  81. Text #3
  82. ID                                       : 5
  83. Format                                   : UTF-8
  84. Codec ID                                 : S_TEXT/UTF8
  85. Codec ID/Info                            : UTF-8 Plain Text
  86. Duration                                 : 39mn 49s
  87. Bit rate                                 : 74 bps
  88. Count of elements                        : 540
  89. Stream size                              : 21.6 KiB (0%)
  90. Title                                    : Traditional
  91. Language                                 : Chinese
  92. Default                                  : No
  93. Forced                                   : No

  94. Text #4
  95. ID                                       : 6
  96. Format                                   : UTF-8
  97. Codec ID                                 : S_TEXT/UTF8
  98. Codec ID/Info                            : UTF-8 Plain Text
  99. Duration                                 : 42mn 58s
  100. Bit rate                                 : 145 bps
  101. Count of elements                        : 572
  102. Stream size                              : 45.9 KiB (0%)
  103. Language                                 : Bulgarian
  104. Default                                  : No
  105. Forced                                   : No
复制代码







郑重声明:
本站提供的所有影视综艺作品均是在网上搜集,任何涉及商业盈利目的均不得使用,否则产生的一切后果将由您自己承担!本站将不对本站的任何内容负任何法律责任!该下载内容仅做宽带测试使用,请在下载后24小时内删除。请购买正版!


百度网盘
购买主题 已有 *** 人购买  本主题需向作者支付 800 魔力 才能浏览
发表于 2019-1-23 12:53:31 | 显示全部楼层
游客无权限查看回复内容
匿名
匿名  发表于 2019-12-31 21:18:51
游客无权限查看回复内容
匿名
匿名  发表于 2020-1-4 11:33:06
游客无权限查看回复内容
匿名
匿名  发表于 2020-3-3 22:58:03
游客无权限查看回复内容
匿名
匿名  发表于 2020-4-24 12:34:58
游客无权限查看回复内容
匿名
匿名  发表于 2020-5-14 03:22:03
游客无权限查看回复内容
匿名
匿名  发表于 2021-3-2 12:04:46
游客无权限查看回复内容
您需要登录后才可以回帖 登录 | 立即注册

本版积分规则

Archiver|联系邮箱:www.1080its.com#[换成@]outlook.com|封号名单|电视剧之家论坛

GMT+8, 2024-4-25 10:25

Powered by Discuz! X3.4

Copyright © 2001-2021, Tencent Cloud.

快速回复 返回顶部 返回列表