电视剧之家

 找回密码
 立即注册
搜索
查看: 478|回复: 1

泰剧:烹饪小姐 全13集[自带中文字幕]Miss.Culinary.S01.THAI.1080p.NF.WEBRip.DDP2.0.x264-SPiRiT 22.6G

[复制链接]
发表于 2019-12-16 18:52:08 | 显示全部楼层 |阅读模式


原名
นางสาวก้นครัว
简体中文名
烹饪小姐
又名
Miss Culinary
主演
瓦妮达·特姆散纳波 Wanida Termthanaporn / 杰森·杨 Jason Young / Louis Thanawin Teeraphosukarn
类型
剧情
制片国家/地区
泰国
语言
泰语
年份
2019
首播日期
2019(泰国)
集数
13
单集片长
47分钟
剧情简介
"Miss Culinary" reveals the brilliance of a young man who tries to keep his girlfriend by telling delicious stories of his mother's recipes to win his girlfriend's heart back. With the story of his mother's life being sour, sweet, salty, spicy, it tells of a girl who ran away from her hometown in Uthai Thani province to face life in Bangkok in the 70s in order to fulfill her dream of being a chef at a 5-star hotel, along with love.@电视剧之家编辑整理
  1. Video
  2. ID : 1
  3. Format : AVC
  4. Format/Info : Advanced Video Codec
  5. Format profile : Main@L4
  6. Format settings : CABAC / 3 Ref Frames
  7. Format settings, CABAC : Yes
  8. Format settings, Reference frames : 3 frames
  9. Codec ID : V_MPEG4/ISO/AVC
  10. Duration : 47 min 10 s
  11. Bit rate mode : Variable
  12. Bit rate : 6 490 kb/s
  13. Maximum bit rate : 9 735 kb/s
  14. Width : 1 920 pixels
  15. Height : 1 080 pixels
  16. Display aspect ratio : 16:9
  17. Frame rate mode : Constant
  18. Frame rate : 25.000 FPS
  19. Color space : YUV
  20. Chroma subsampling : 4:2:0
  21. Bit depth : 8 bits
  22. Scan type : Progressive
  23. Bits/(Pixel*Frame) : 0.125
  24. Stream size : 2.12 GiB (98%)
  25. Writing library : x264 core 148 r2715 7e75228
  26. Encoding settings : cabac=1 / ref=3 / deblock=1:0:0 / analyse=0x1:0x111 / me=umh / subme=10 / psy=1 / psy_rd=1.00:0.00 / mixed_ref=1 / me_range=24 / chroma_me=1 / trellis=2 / 8x8dct=0 / cqm=0 / deadzone=21,11 / fast_pskip=1 / chroma_qp_offset=-2 / threads=8 / lookahead_threads=1 / sliced_threads=0 / nr=0 / decimate=1 / interlaced=0 / bluray_compat=0 / stitchable=1 / constrained_intra=0 / bframes=2 / b_pyramid=0 / b_adapt=2 / b_bias=0 / direct=3 / weightb=1 / open_gop=0 / weightp=2 / keyint=250 / keyint_min=25 / scenecut=0 / intra_refresh=0 / rc_lookahead=50 / rc=2pass / mbtree=1 / bitrate=6490 / ratetol=1.0 / qcomp=0.50 / qpmin=6 / qpmax=51 / qpstep=4 / cplxblur=20.0 / qblur=0.5 / vbv_maxrate=9735 / vbv_bufsize=12980 / nal_hrd=vbr / filler=0 / ip_ratio=1.40 / aq=1:1.00
  27. Default : Yes
  28. Forced : No

  29. Audio
  30. ID : 2
  31. Format : E-AC-3
  32. Format/Info : Enhanced AC-3
  33. Commercial name : Dolby Digital Plus
  34. Codec ID : A_EAC3
  35. Duration : 47 min 10 s
  36. Bit rate mode : Constant
  37. Bit rate : 128 kb/s
  38. Channel(s) : 2 channels
  39. Channel layout : L R
  40. Sampling rate : 48.0 kHz
  41. Frame rate : 31.250 FPS (1536 SPF)
  42. Compression mode : Lossy
  43. Stream size : 43.2 MiB (2%)
  44. Language : Thai
  45. Service kind : Complete Main
  46. Default : Yes
  47. Forced : No

  48. Text #1
  49. ID : 3
  50. Format : UTF-8
  51. Codec ID : S_TEXT/UTF8
  52. Codec ID/Info : UTF-8 Plain Text
  53. Duration : 45 min 19 s
  54. Bit rate : 58 b/s
  55. Count of elements : 693
  56. Stream size : 19.5 KiB (0%)
  57. Language : English
  58. Default : Yes
  59. Forced : No

  60. Text #2
  61. ID : 4
  62. Format : UTF-8
  63. Codec ID : S_TEXT/UTF8
  64. Codec ID/Info : UTF-8 Plain Text
  65. Duration : 45 min 19 s
  66. Bit rate : 92 b/s
  67. Count of elements : 696
  68. Stream size : 30.6 KiB (0%)
  69. Language : Arabic
  70. Default : No
  71. Forced : No

  72. Text #3
  73. ID : 5
  74. Format : UTF-8
  75. Codec ID : S_TEXT/UTF8
  76. Codec ID/Info : UTF-8 Plain Text
  77. Duration : 45 min 18 s
  78. Bit rate : 62 b/s
  79. Count of elements : 693
  80. Stream size : 20.7 KiB (0%)
  81. Language : German
  82. Default : No
  83. Forced : No

  84. Text #4
  85. ID : 6
  86. Format : UTF-8
  87. Codec ID : S_TEXT/UTF8
  88. Codec ID/Info : UTF-8 Plain Text
  89. Duration : 45 min 19 s
  90. Bit rate : 59 b/s
  91. Count of elements : 696
  92. Stream size : 19.7 KiB (0%)
  93. Title : Latin American
  94. Language : Spanish
  95. Default : No
  96. Forced : No

  97. Text #5
  98. ID : 7
  99. Format : UTF-8
  100. Codec ID : S_TEXT/UTF8
  101. Codec ID/Info : UTF-8 Plain Text
  102. Duration : 45 min 19 s
  103. Bit rate : 58 b/s
  104. Count of elements : 696
  105. Stream size : 19.4 KiB (0%)
  106. Title : European
  107. Language : Spanish
  108. Default : No
  109. Forced : No

  110. Text #6
  111. ID : 8
  112. Format : UTF-8
  113. Codec ID : S_TEXT/UTF8
  114. Codec ID/Info : UTF-8 Plain Text
  115. Duration : 45 min 19 s
  116. Bit rate : 64 b/s
  117. Count of elements : 696
  118. Stream size : 21.3 KiB (0%)
  119. Language : French
  120. Default : No
  121. Forced : No

  122. Text #7
  123. ID : 9
  124. Format : UTF-8
  125. Codec ID : S_TEXT/UTF8
  126. Codec ID/Info : UTF-8 Plain Text
  127. Duration : 45 min 19 s
  128. Bit rate : 60 b/s
  129. Count of elements : 696
  130. Stream size : 19.9 KiB (0%)
  131. Language : Indonesian
  132. Default : No
  133. Forced : No

  134. Text #8
  135. ID : 10
  136. Format : UTF-8
  137. Codec ID : S_TEXT/UTF8
  138. Codec ID/Info : UTF-8 Plain Text
  139. Duration : 45 min 19 s
  140. Bit rate : 58 b/s
  141. Count of elements : 695
  142. Stream size : 19.3 KiB (0%)
  143. Language : Italian
  144. Default : No
  145. Forced : No

  146. Text #9
  147. ID : 11
  148. Format : UTF-8
  149. Codec ID : S_TEXT/UTF8
  150. Codec ID/Info : UTF-8 Plain Text
  151. Duration : 45 min 19 s
  152. Bit rate : 50 b/s
  153. Count of elements : 655
  154. Stream size : 16.9 KiB (0%)
  155. Language : Japanese
  156. Default : No
  157. Forced : No

  158. Text #10
  159. ID : 12
  160. Format : UTF-8
  161. Codec ID : S_TEXT/UTF8
  162. Codec ID/Info : UTF-8 Plain Text
  163. Duration : 45 min 19 s
  164. Bit rate : 60 b/s
  165. Count of elements : 701
  166. Stream size : 20.1 KiB (0%)
  167. Language : Korean
  168. Default : No
  169. Forced : No

  170. Text #11
  171. ID : 13
  172. Format : UTF-8
  173. Codec ID : S_TEXT/UTF8
  174. Codec ID/Info : UTF-8 Plain Text
  175. Duration : 45 min 19 s
  176. Bit rate : 58 b/s
  177. Count of elements : 696
  178. Stream size : 19.3 KiB (0%)
  179. Language : Malay
  180. Default : No
  181. Forced : No

  182. Text #12
  183. ID : 14
  184. Format : UTF-8
  185. Codec ID : S_TEXT/UTF8
  186. Codec ID/Info : UTF-8 Plain Text
  187. Duration : 45 min 19 s
  188. Bit rate : 58 b/s
  189. Count of elements : 693
  190. Stream size : 19.6 KiB (0%)
  191. Title : European
  192. Language : Portuguese
  193. Default : No
  194. Forced : No

  195. Text #13
  196. ID : 15
  197. Format : UTF-8
  198. Codec ID : S_TEXT/UTF8
  199. Codec ID/Info : UTF-8 Plain Text
  200. Duration : 45 min 19 s
  201. Bit rate : 54 b/s
  202. Count of elements : 699
  203. Stream size : 18.2 KiB (0%)
  204. Title : Brazilian
  205. Language : Portuguese
  206. Default : No
  207. Forced : No

  208. Text #14
  209. ID : 16
  210. Format : UTF-8
  211. Codec ID : S_TEXT/UTF8
  212. Codec ID/Info : UTF-8 Plain Text
  213. Duration : 45 min 18 s
  214. Bit rate : 150 b/s
  215. Count of elements : 687
  216. Stream size : 50.1 KiB (0%)
  217. Language : Thai
  218. Default : No
  219. Forced : No

  220. Text #15
  221. ID : 17
  222. Format : UTF-8
  223. Codec ID : S_TEXT/UTF8
  224. Codec ID/Info : UTF-8 Plain Text
  225. Duration : 1 min 42 s
  226. Bit rate : 10 b/s
  227. Count of elements : 2
  228. Stream size : 132 Bytes (0%)
  229. Title : Forced
  230. Language : Thai
  231. Default : No
  232. Forced : No

  233. Text #16
  234. ID : 18
  235. Format : UTF-8
  236. Codec ID : S_TEXT/UTF8
  237. Codec ID/Info : UTF-8 Plain Text
  238. Duration : 45 min 19 s
  239. Bit rate : 74 b/s
  240. Count of elements : 695
  241. Stream size : 24.6 KiB (0%)
  242. Language : Vietnamese
  243. Default : No
  244. Forced : No

  245. Text #17
  246. ID : 19
  247. Format : UTF-8
  248. Codec ID : S_TEXT/UTF8
  249. Codec ID/Info : UTF-8 Plain Text
  250. Duration : 45 min 19 s
  251. Bit rate : 54 b/s
  252. Count of elements : 692
  253. Stream size : 18.0 KiB (0%)
  254. Title : Simplified
  255. Language : Chinese
  256. Default : No
  257. Forced : No

  258. Text #18
  259. ID : 20
  260. Format : UTF-8
  261. Codec ID : S_TEXT/UTF8
  262. Codec ID/Info : UTF-8 Plain Text
  263. Duration : 45 min 19 s
  264. Bit rate : 54 b/s
  265. Count of elements : 711
  266. Stream size : 18.2 KiB (0%)
  267. Title : Traditional
  268. Language : Chinese
  269. Default : No
  270. Forced : No
复制代码





游客,如果您要查看本帖隐藏内容请回复

本帖子中包含更多资源

您需要 登录 才可以下载或查看,没有帐号?立即注册

x
匿名
匿名  发表于 2020-2-24 14:20:01
没看过这部
您需要登录后才可以回帖 登录 | 立即注册

本版积分规则

QQ|邮箱admin#[换成@]1080its.com|封号名单|电视剧之家 |网站地图

GMT+8, 2020-7-12 22:54

Powered by Discuz! X3.4

© 2001-2017 Comsenz Inc.

快速回复 返回顶部 返回列表