电视剧之家

 找回密码
 立即注册
搜索
查看: 64|回复: 0

[无台标][日剧:Good Morning Call 第二季][1080P-Netflix版/24G][自带中文字幕][MKV][百度]

[复制链接]
发表于 2019-12-17 11:26:16 | 显示全部楼层 |阅读模式




◎译  名 Good Morning Call
◎片  名 グッドモーニング・コール
◎年  代 2017
◎产  地 日本
◎语  言 日语
◎上映日期 2017-09-23(日本)
◎豆瓣评分 6.8/10 from 70 users
◎豆瓣链接 https://movie.douban.com/subject/27140044/
◎集  数 10
◎主  演 福原遥 Haruka Fukuhara
      白石隼也 Shun'ya Shiraishi
      樱田通 Dori Sakurada
      杉野遥亮 Yosuke Sugino
      相乐树 Sagara Itsuki
      高桥玛莉润 Maryjun Takahashi

◎简  介

  高中毕业的吉川菜绪与她最最最最~爱的上原踏进了大学的校园,甜到牙疼的这对情侣虽然没有继续同居但成为了邻居。然而成为大学生的上原立刻就被全校女生追捧,菜绪看在眼里别扭在心里。张嘴吃糖的时间到了旁友们
  1. Video
  2. ID                          : 1
  3. Format                      : AVC
  4. Format/Info                 : Advanced Video Codec
  5. Format profile              : [email protected]
  6. Format settings             : CABAC / 3 Ref Frames
  7. Format settings, CABAC      : Yes
  8. Format settings, ReFrames   : 3 frames
  9. Codec ID                    : V_MPEG4/ISO/AVC
  10. Duration                    : 48 min 30 s
  11. Bit rate mode               : Variable
  12. Bit rate                    : 7 500 kb/s
  13. Maximum bit rate            : 11.2 Mb/s
  14. Width                       : 1 920 pixels
  15. Height                      : 1 080 pixels
  16. Display aspect ratio        : 16:9
  17. Frame rate mode             : Constant
  18. Frame rate                  : 29.970 (30000/1001) FPS
  19. Color space                 : YUV
  20. Chroma subsampling          : 4:2:0
  21. Bit depth                   : 8 bits
  22. Scan type                   : Progressive
  23. Bits/(Pixel*Frame)          : 0.121
  24. Stream size                 : 2.53 GiB (97%)
  25. Writing library             : x264 core 118
  26. Encoding settings           : cabac=1 / ref=3 / deblock=1:0:0 / analyse=0x1:0x111 / me=umh / subme=10 / psy=1 / psy_rd=1.00:0.00 / mixed_ref=1 / me_range=24 / chroma_me=1 / trellis=2 / 8x8dct=0 / cqm=0 / deadzone=21,11 / fast_pskip=1 / chroma_qp_offset=-2 / threads=8 / sliced_threads=0 / nr=0 / decimate=1 / interlaced=0 / bluray_compat=0 / constrained_intra=0 / bframes=2 / b_pyramid=0 / b_adapt=2 / b_bias=0 / direct=3 / weightb=1 / open_gop=0 / weightp=2 / keyint=60 / keyint_min=31 / scenecut=0 / intra_refresh=0 / rc_lookahead=0 / rc=2pass / mbtree=1 / bitrate=7500 / ratetol=1.0 / qcomp=0.50 / qpmin=6 / qpmax=51 / qpstep=4 / cplxblur=20.0 / qblur=0.5 / vbv_maxrate=11250 / vbv_bufsize=15000 / nal_hrd=vbr / ip_ratio=1.40 / aq=1:1.00
  27. Default                     : Yes
  28. Forced                      : No

  29. Audio #1
  30. ID                          : 2
  31. Format                      : E-AC-3
  32. Format/Info                 : Enhanced Audio Coding 3
  33. Codec ID                    : A_EAC3
  34. Duration                    : 48 min 30 s
  35. Bit rate mode               : Constant
  36. Bit rate                    : 128 kb/s
  37. Channel(s)                  : 2 channels
  38. Channel positions           : Front: L R
  39. Sampling rate               : 48.0 kHz
  40. Frame rate                  : 187.500 FPS (256 SPF)
  41. Compression mode            : Lossy
  42. Stream size                 : 44.4 MiB (2%)
  43. Title                       : Japanese
  44. Language                    : Japanese
  45. Service kind                : Complete Main
  46. Default                     : No
  47. Forced                      : No

  48. Audio #2
  49. ID                          : 3
  50. Format                      : E-AC-3
  51. Format/Info                 : Enhanced Audio Coding 3
  52. Codec ID                    : A_EAC3
  53. Duration                    : 48 min 30 s
  54. Bit rate mode               : Constant
  55. Bit rate                    : 128 kb/s
  56. Channel(s)                  : 2 channels
  57. Channel positions           : Front: L R
  58. Sampling rate               : 48.0 kHz
  59. Frame rate                  : 187.500 FPS (256 SPF)
  60. Compression mode            : Lossy
  61. Stream size                 : 44.4 MiB (2%)
  62. Title                       : Japanese (Audio Description)
  63. Language                    : Japanese
  64. Service kind                : Complete Main
  65. Default                     : No
  66. Forced                      : No

  67. Text #1
  68. ID                          : 4
  69. Format                      : UTF-8
  70. Codec ID                    : S_TEXT/UTF8
  71. Codec ID/Info               : UTF-8 Plain Text
  72. Duration                    : 48 min 19 s
  73. Bit rate                    : 49 b/s
  74. Count of elements           : 641
  75. Stream size                 : 17.6 KiB (0%)
  76. Title                       : Castilian [Full]
  77. Language                    : Spanish
  78. Default                     : No
  79. Forced                      : No

  80. Text #2
  81. ID                          : 5
  82. Format                      : UTF-8
  83. Codec ID                    : S_TEXT/UTF8
  84. Codec ID/Info               : UTF-8 Plain Text
  85. Duration                    : 48 min 19 s
  86. Bit rate                    : 45 b/s
  87. Count of elements           : 669
  88. Stream size                 : 16.3 KiB (0%)
  89. Title                       : Spanish [Full]
  90. Language                    : Spanish
  91. Default                     : No
  92. Forced                      : No

  93. Text #3
  94. ID                          : 6
  95. Format                      : UTF-8
  96. Codec ID                    : S_TEXT/UTF8
  97. Codec ID/Info               : UTF-8 Plain Text
  98. Duration                    : 48 min 0 s
  99. Bit rate                    : 53 b/s
  100. Count of elements           : 719
  101. Stream size                 : 18.7 KiB (0%)
  102. Title                       : English [Full]
  103. Language                    : English
  104. Default                     : No
  105. Forced                      : No

  106. Text #4
  107. ID                          : 7
  108. Format                      : UTF-8
  109. Codec ID                    : S_TEXT/UTF8
  110. Codec ID/Info               : UTF-8 Plain Text
  111. Duration                    : 48 min 19 s
  112. Bit rate                    : 49 b/s
  113. Count of elements           : 666
  114. Stream size                 : 17.5 KiB (0%)
  115. Title                       : French [Full]
  116. Language                    : French
  117. Default                     : No
  118. Forced                      : No

  119. Text #5
  120. ID                          : 8
  121. Format                      : UTF-8
  122. Codec ID                    : S_TEXT/UTF8
  123. Codec ID/Info               : UTF-8 Plain Text
  124. Duration                    : 48 min 23 s
  125. Bit rate                    : 46 b/s
  126. Count of elements           : 664
  127. Stream size                 : 16.6 KiB (0%)
  128. Title                       : Deutsch [Full]
  129. Language                    : German
  130. Default                     : No
  131. Forced                      : No

  132. Text #6
  133. ID                          : 9
  134. Format                      : UTF-8
  135. Codec ID                    : S_TEXT/UTF8
  136. Codec ID/Info               : UTF-8 Plain Text
  137. Duration                    : 48 min 23 s
  138. Bit rate                    : 45 b/s
  139. Count of elements           : 660
  140. Stream size                 : 16.2 KiB (0%)
  141. Title                       : Italian [Full]
  142. Language                    : Italian
  143. Default                     : No
  144. Forced                      : No

  145. Text #7
  146. ID                          : 10
  147. Format                      : UTF-8
  148. Codec ID                    : S_TEXT/UTF8
  149. Codec ID/Info               : UTF-8 Plain Text
  150. Duration                    : 48 min 23 s
  151. Bit rate                    : 48 b/s
  152. Count of elements           : 667
  153. Stream size                 : 17.3 KiB (0%)
  154. Title                       : Portuguese [Full]
  155. Language                    : Portuguese
  156. Default                     : No
  157. Forced                      : No

  158. Text #8
  159. ID                          : 11
  160. Format                      : UTF-8
  161. Codec ID                    : S_TEXT/UTF8
  162. Codec ID/Info               : UTF-8 Plain Text
  163. Duration                    : 48 min 19 s
  164. Bit rate                    : 46 b/s
  165. Count of elements           : 669
  166. Stream size                 : 16.6 KiB (0%)
  167. Title                       : Brazilian Portuguese [Full]
  168. Language                    : Portuguese
  169. Default                     : No
  170. Forced                      : No

  171. Text #9
  172. ID                          : 12
  173. Format                      : UTF-8
  174. Codec ID                    : S_TEXT/UTF8
  175. Codec ID/Info               : UTF-8 Plain Text
  176. Duration                    : 48 min 19 s
  177. Bit rate                    : 47 b/s
  178. Count of elements           : 667
  179. Stream size                 : 16.8 KiB (0%)
  180. Title                       : Polish [Full]
  181. Language                    : Polish
  182. Default                     : No
  183. Forced                      : No

  184. Text #10
  185. ID                          : 13
  186. Format                      : UTF-8
  187. Codec ID                    : S_TEXT/UTF8
  188. Codec ID/Info               : UTF-8 Plain Text
  189. Duration                    : 48 min 19 s
  190. Bit rate                    : 43 b/s
  191. Count of elements           : 668
  192. Stream size                 : 15.5 KiB (0%)
  193. Title                       : Turkish [Full]
  194. Language                    : Turkish
  195. Default                     : No
  196. Forced                      : No

  197. Text #11
  198. ID                          : 14
  199. Format                      : UTF-8
  200. Codec ID                    : S_TEXT/UTF8
  201. Codec ID/Info               : UTF-8 Plain Text
  202. Duration                    : 48 min 19 s
  203. Bit rate                    : 46 b/s
  204. Count of elements           : 670
  205. Stream size                 : 16.6 KiB (0%)
  206. Title                       : Swedish [Full]
  207. Language                    : Swedish
  208. Default                     : No
  209. Forced                      : No

  210. Text #12
  211. ID                          : 15
  212. Format                      : UTF-8
  213. Codec ID                    : S_TEXT/UTF8
  214. Codec ID/Info               : UTF-8 Plain Text
  215. Duration                    : 48 min 19 s
  216. Bit rate                    : 45 b/s
  217. Count of elements           : 667
  218. Stream size                 : 16.2 KiB (0%)
  219. Title                       : Danish [Full]
  220. Language                    : Danish
  221. Default                     : No
  222. Forced                      : No

  223. Text #13
  224. ID                          : 16
  225. Format                      : UTF-8
  226. Codec ID                    : S_TEXT/UTF8
  227. Codec ID/Info               : UTF-8 Plain Text
  228. Duration                    : 48 min 19 s
  229. Bit rate                    : 50 b/s
  230. Count of elements           : 661
  231. Stream size                 : 17.8 KiB (0%)
  232. Title                       : Finnish [Full]
  233. Language                    : Finnish
  234. Default                     : No
  235. Forced                      : No

  236. Text #14
  237. ID                          : 17
  238. Format                      : UTF-8
  239. Codec ID                    : S_TEXT/UTF8
  240. Codec ID/Info               : UTF-8 Plain Text
  241. Duration                    : 48 min 23 s
  242. Bit rate                    : 40 b/s
  243. Count of elements           : 655
  244. Stream size                 : 14.4 KiB (0%)
  245. Title                       : Dutch [Full]
  246. Language                    : Dutch
  247. Default                     : No
  248. Forced                      : No

  249. Text #15
  250. ID                          : 18
  251. Format                      : UTF-8
  252. Codec ID                    : S_TEXT/UTF8
  253. Codec ID/Info               : UTF-8 Plain Text
  254. Duration                    : 48 min 19 s
  255. Bit rate                    : 43 b/s
  256. Count of elements           : 670
  257. Stream size                 : 15.3 KiB (0%)
  258. Title                       : Norwegian [Full]
  259. Language                    : Norwegian
  260. Default                     : No
  261. Forced                      : No

  262. Text #16
  263. ID                          : 19
  264. Format                      : UTF-8
  265. Codec ID                    : S_TEXT/UTF8
  266. Codec ID/Info               : UTF-8 Plain Text
  267. Duration                    : 48 min 0 s
  268. Bit rate                    : 81 b/s
  269. Count of elements           : 719
  270. Stream size                 : 28.6 KiB (0%)
  271. Title                       : Bulgarian [Full]
  272. Language                    : Bulgarian
  273. Default                     : No
  274. Forced                      : No

  275. Text #17
  276. ID                          : 20
  277. Format                      : UTF-8
  278. Codec ID                    : S_TEXT/UTF8
  279. Codec ID/Info               : UTF-8 Plain Text
  280. Duration                    : 48 min 19 s
  281. Bit rate                    : 65 b/s
  282. Count of elements           : 671
  283. Stream size                 : 23.1 KiB (0%)
  284. Title                       : Hebrew [Full]
  285. Language                    : Hebrew
  286. Default                     : No
  287. Forced                      : No

  288. Text #18
  289. ID                          : 21
  290. Format                      : UTF-8
  291. Codec ID                    : S_TEXT/UTF8
  292. Codec ID/Info               : UTF-8 Plain Text
  293. Duration                    : 48 min 19 s
  294. Bit rate                    : 79 b/s
  295. Count of elements           : 667
  296. Stream size                 : 28.0 KiB (0%)
  297. Title                       : Arabic [Full]
  298. Language                    : Arabic
  299. Default                     : No
  300. Forced                      : No

  301. Text #19
  302. ID                          : 22
  303. Format                      : UTF-8
  304. Codec ID                    : S_TEXT/UTF8
  305. Codec ID/Info               : UTF-8 Plain Text
  306. Duration                    : 48 min 18 s
  307. Bit rate                    : 48 b/s
  308. Count of elements           : 670
  309. Stream size                 : 17.2 KiB (0%)
  310. Title                       : Romanian [Full]
  311. Language                    : Romanian
  312. Default                     : No
  313. Forced                      : No

  314. Text #20
  315. ID                          : 23
  316. Format                      : UTF-8
  317. Codec ID                    : S_TEXT/UTF8
  318. Codec ID/Info               : UTF-8 Plain Text
  319. Duration                    : 48 min 21 s
  320. Bit rate                    : 127 b/s
  321. Count of elements           : 717
  322. Stream size                 : 45.1 KiB (0%)
  323. Title                       : Thai [Full]
  324. Language                    : Thai
  325. Default                     : No
  326. Forced                      : No

  327. Text #21
  328. ID                          : 24
  329. Format                      : UTF-8
  330. Codec ID                    : S_TEXT/UTF8
  331. Codec ID/Info               : UTF-8 Plain Text
  332. Duration                    : 48 min 19 s
  333. Bit rate                    : 51 b/s
  334. Count of elements           : 688
  335. Stream size                 : 18.3 KiB (0%)
  336. Title                       : Korean [Full]
  337. Language                    : Korean
  338. Default                     : No
  339. Forced                      : No

  340. Text #22
  341. ID                          : 25
  342. Format                      : UTF-8
  343. Codec ID                    : S_TEXT/UTF8
  344. Codec ID/Info               : UTF-8 Plain Text
  345. Duration                    : 48 min 19 s
  346. Bit rate                    : 47 b/s
  347. Count of elements           : 669
  348. Stream size                 : 16.6 KiB (0%)
  349. Title                       : Chinese (Simplified) [Full]
  350. Language                    : Chinese
  351. Default                     : No
  352. Forced                      : No

  353. Text #23
  354. ID                          : 26
  355. Format                      : UTF-8
  356. Codec ID                    : S_TEXT/UTF8
  357. Codec ID/Info               : UTF-8 Plain Text
  358. Duration                    : 48 min 19 s
  359. Bit rate                    : 47 b/s
  360. Count of elements           : 670
  361. Stream size                 : 16.8 KiB (0%)
  362. Title                       : Chinese (Traditional) [Full]
  363. Language                    : Chinese
  364. Default                     : No
  365. Forced                      : No

  366. Text #24
  367. ID                          : 27
  368. Format                      : UTF-8
  369. Codec ID                    : S_TEXT/UTF8
  370. Codec ID/Info               : UTF-8 Plain Text
  371. Duration                    : 48 min 7 s
  372. Bit rate                    : 76 b/s
  373. Count of elements           : 795
  374. Stream size                 : 26.8 KiB (0%)
  375. Title                       : Japanese [SDH]
  376. Language                    : Japanese
  377. Default                     : No
  378. Forced                      : No
复制代码



百度云
购买主题 本主题需向作者支付 500 魔力 才能浏览
您需要登录后才可以回帖 登录 | 立即注册

本版积分规则

QQ|E-MAIL:[email protected]|小黑屋|电视剧之家 |网站地图

GMT+8, 2020-1-19 12:59

Powered by Discuz! X3.4

© 2001-2017 Comsenz Inc.

快速回复 返回顶部 返回列表