电视剧之家

 找回密码
 立即注册
搜索
查看: 86|回复: 0

[无台标][日剧 炎之转校生:重生 全8话][1080P-Netflix版/11.4G][自带中文等多国语言字幕][MKV][百度]

[复制链接]
发表于 2019-12-17 11:27:40 | 显示全部楼层 |阅读模式


◎译  名 炎之转校生:重生
◎片  名 炎の転校生 REBORN
◎年  代 2017
◎产  地 日本
◎类  别 剧情
◎语  言 日语
◎上映日期 2017-10-10(日本)
◎豆瓣评分 7.7/10 from 18 users
◎豆瓣链接 https://movie.douban.com/subject/27005357/
◎集  数 8
◎导  演 李斗士男 Toshio Lee
◎主  演 重冈大毅 Shigeoka Daiki
      桐山照史 Akito Kiriyama
      中间淳太 Junta Nakama
      神山智洋 Kamiyama Tomohiro
      藤井流星 Ryusei Fujii
      濱田崇裕 Takahiro Hamada
      小泷望 Nozomu Kotaki

◎简  介

  ジャニーズWESTが、動画配信サービス「Netflix」(今冬配信)のドラマ『炎の転校生 REBORN』に出演。7人全員で主演を務める。週間少年サンデーで連載された人気漫画が原作。
  1. Video
  2. ID                          : 1
  3. Format                      : AVC
  4. Format/Info                 : Advanced Video Codec
  5. Format profile              : [email protected]
  6. Format settings             : CABAC / 3 Ref Frames
  7. Format settings, CABAC      : Yes
  8. Format settings, ReFrames   : 3 frames
  9. Codec ID                    : V_MPEG4/ISO/AVC
  10. Duration                    : 26 min 57 s
  11. Bit rate mode               : Variable
  12. Bit rate                    : 7 500 kb/s
  13. Maximum bit rate            : 11.2 Mb/s
  14. Width                       : 1 920 pixels
  15. Height                      : 1 080 pixels
  16. Display aspect ratio        : 16:9
  17. Frame rate mode             : Constant
  18. Frame rate                  : 29.970 (30000/1001) FPS
  19. Color space                 : YUV
  20. Chroma subsampling          : 4:2:0
  21. Bit depth                   : 8 bits
  22. Scan type                   : Progressive
  23. Bits/(Pixel*Frame)          : 0.121
  24. Stream size                 : 1.41 GiB (91%)
  25. Writing library             : x264 core 148
  26. Encoding settings           : cabac=1 / ref=3 / deblock=1:0:0 / analyse=0x1:0x111 / me=umh / subme=10 / psy=1 / psy_rd=1.00:0.00 / mixed_ref=1 / me_range=24 / chroma_me=1 / trellis=2 / 8x8dct=0 / cqm=0 / deadzone=21,11 / fast_pskip=1 / chroma_qp_offset=-2 / threads=8 / lookahead_threads=1 / sliced_threads=0 / nr=0 / decimate=1 / interlaced=0 / bluray_compat=0 / stitchable=1 / constrained_intra=0 / bframes=2 / b_pyramid=0 / b_adapt=2 / b_bias=0 / direct=3 / weightb=1 / open_gop=0 / weightp=2 / keyint=60 / keyint_min=31 / scenecut=0 / intra_refresh=0 / rc_lookahead=60 / rc=2pass / mbtree=1 / bitrate=7500 / ratetol=1.0 / qcomp=0.50 / qpmin=6 / qpmax=51 / qpstep=4 / cplxblur=20.0 / qblur=0.5 / vbv_maxrate=11250 / vbv_bufsize=15000 / nal_hrd=vbr / filler=0 / ip_ratio=1.40 / aq=1:1.00
  27. Default                     : Yes
  28. Forced                      : No

  29. Audio #1
  30. ID                          : 2
  31. Format                      : AC-3
  32. Format/Info                 : Audio Coding 3
  33. Codec ID                    : A_AC3
  34. Duration                    : 26 min 57 s
  35. Bit rate mode               : Constant
  36. Bit rate                    : 384 kb/s
  37. Channel(s)                  : 6 channels
  38. Channel positions           : Front: L C R, Side: L R, LFE
  39. Sampling rate               : 48.0 kHz
  40. Frame rate                  : 31.250 FPS (1536 SPF)
  41. Bit depth                   : 16 bits
  42. Compression mode            : Lossy
  43. Stream size                 : 74.0 MiB (5%)
  44. Title                       : Japanese
  45. Language                    : Japanese
  46. Service kind                : Complete Main
  47. Default                     : No
  48. Forced                      : No

  49. Audio #2
  50. ID                          : 3
  51. Format                      : AC-3
  52. Format/Info                 : Audio Coding 3
  53. Codec ID                    : A_AC3
  54. Duration                    : 26 min 57 s
  55. Bit rate mode               : Constant
  56. Bit rate                    : 384 kb/s
  57. Channel(s)                  : 6 channels
  58. Channel positions           : Front: L C R, Side: L R, LFE
  59. Sampling rate               : 48.0 kHz
  60. Frame rate                  : 31.250 FPS (1536 SPF)
  61. Bit depth                   : 16 bits
  62. Compression mode            : Lossy
  63. Stream size                 : 74.0 MiB (5%)
  64. Title                       : Japanese (Audio Description)
  65. Language                    : Japanese
  66. Service kind                : Complete Main
  67. Default                     : No
  68. Forced                      : No

  69. Text #1
  70. ID                          : 4
  71. Format                      : UTF-8
  72. Codec ID                    : S_TEXT/UTF8
  73. Codec ID/Info               : UTF-8 Plain Text
  74. Duration                    : 26 min 45 s
  75. Bit rate                    : 69 b/s
  76. Count of elements           : 432
  77. Stream size                 : 13.7 KiB (0%)
  78. Title                       : Castilian [Full]
  79. Language                    : Spanish
  80. Default                     : No
  81. Forced                      : No

  82. Text #2
  83. ID                          : 5
  84. Format                      : UTF-8
  85. Codec ID                    : S_TEXT/UTF8
  86. Codec ID/Info               : UTF-8 Plain Text
  87. Duration                    : 26 min 45 s
  88. Bit rate                    : 60 b/s
  89. Count of elements           : 432
  90. Stream size                 : 11.9 KiB (0%)
  91. Title                       : Spanish [Full]
  92. Language                    : Spanish
  93. Default                     : No
  94. Forced                      : No

  95. Text #3
  96. ID                          : 6
  97. Format                      : UTF-8
  98. Codec ID                    : S_TEXT/UTF8
  99. Codec ID/Info               : UTF-8 Plain Text
  100. Duration                    : 26 min 40 s
  101. Bit rate                    : 67 b/s
  102. Count of elements           : 430
  103. Stream size                 : 13.3 KiB (0%)
  104. Title                       : English [Full]
  105. Language                    : English
  106. Default                     : No
  107. Forced                      : No

  108. Text #4
  109. ID                          : 7
  110. Format                      : UTF-8
  111. Codec ID                    : S_TEXT/UTF8
  112. Codec ID/Info               : UTF-8 Plain Text
  113. Duration                    : 26 min 45 s
  114. Bit rate                    : 63 b/s
  115. Count of elements           : 432
  116. Stream size                 : 12.5 KiB (0%)
  117. Title                       : French [Full]
  118. Language                    : French
  119. Default                     : No
  120. Forced                      : No

  121. Text #5
  122. ID                          : 8
  123. Format                      : UTF-8
  124. Codec ID                    : S_TEXT/UTF8
  125. Codec ID/Info               : UTF-8 Plain Text
  126. Duration                    : 26 min 45 s
  127. Bit rate                    : 60 b/s
  128. Count of elements           : 428
  129. Stream size                 : 11.8 KiB (0%)
  130. Title                       : Deutsch [Full]
  131. Language                    : German
  132. Default                     : No
  133. Forced                      : No

  134. Text #6
  135. ID                          : 9
  136. Format                      : UTF-8
  137. Codec ID                    : S_TEXT/UTF8
  138. Codec ID/Info               : UTF-8 Plain Text
  139. Duration                    : 26 min 44 s
  140. Bit rate                    : 63 b/s
  141. Count of elements           : 426
  142. Stream size                 : 12.4 KiB (0%)
  143. Title                       : Italian [Full]
  144. Language                    : Italian
  145. Default                     : No
  146. Forced                      : No

  147. Text #7
  148. ID                          : 10
  149. Format                      : UTF-8
  150. Codec ID                    : S_TEXT/UTF8
  151. Codec ID/Info               : UTF-8 Plain Text
  152. Duration                    : 26 min 45 s
  153. Bit rate                    : 57 b/s
  154. Count of elements           : 432
  155. Stream size                 : 11.3 KiB (0%)
  156. Title                       : Portuguese [Full]
  157. Language                    : Portuguese
  158. Default                     : No
  159. Forced                      : No

  160. Text #8
  161. ID                          : 11
  162. Format                      : UTF-8
  163. Codec ID                    : S_TEXT/UTF8
  164. Codec ID/Info               : UTF-8 Plain Text
  165. Duration                    : 26 min 45 s
  166. Bit rate                    : 58 b/s
  167. Count of elements           : 424
  168. Stream size                 : 11.5 KiB (0%)
  169. Title                       : Brazilian Portuguese [Full]
  170. Language                    : Portuguese
  171. Default                     : No
  172. Forced                      : No

  173. Text #9
  174. ID                          : 12
  175. Format                      : UTF-8
  176. Codec ID                    : S_TEXT/UTF8
  177. Codec ID/Info               : UTF-8 Plain Text
  178. Duration                    : 26 min 45 s
  179. Bit rate                    : 54 b/s
  180. Count of elements           : 437
  181. Stream size                 : 10.7 KiB (0%)
  182. Title                       : Polish [Full]
  183. Language                    : Polish
  184. Default                     : No
  185. Forced                      : No

  186. Text #10
  187. ID                          : 13
  188. Format                      : UTF-8
  189. Codec ID                    : S_TEXT/UTF8
  190. Codec ID/Info               : UTF-8 Plain Text
  191. Duration                    : 26 min 45 s
  192. Bit rate                    : 63 b/s
  193. Count of elements           : 427
  194. Stream size                 : 12.4 KiB (0%)
  195. Title                       : Turkish [Full]
  196. Language                    : Turkish
  197. Default                     : No
  198. Forced                      : No

  199. Text #11
  200. ID                          : 14
  201. Format                      : UTF-8
  202. Codec ID                    : S_TEXT/UTF8
  203. Codec ID/Info               : UTF-8 Plain Text
  204. Duration                    : 26 min 45 s
  205. Bit rate                    : 55 b/s
  206. Count of elements           : 429
  207. Stream size                 : 10.8 KiB (0%)
  208. Title                       : Swedish [Full]
  209. Language                    : Swedish
  210. Default                     : No
  211. Forced                      : No

  212. Text #12
  213. ID                          : 15
  214. Format                      : UTF-8
  215. Codec ID                    : S_TEXT/UTF8
  216. Codec ID/Info               : UTF-8 Plain Text
  217. Duration                    : 26 min 45 s
  218. Bit rate                    : 55 b/s
  219. Count of elements           : 431
  220. Stream size                 : 11.0 KiB (0%)
  221. Title                       : Danish [Full]
  222. Language                    : Danish
  223. Default                     : No
  224. Forced                      : No

  225. Text #13
  226. ID                          : 16
  227. Format                      : UTF-8
  228. Codec ID                    : S_TEXT/UTF8
  229. Codec ID/Info               : UTF-8 Plain Text
  230. Duration                    : 26 min 45 s
  231. Bit rate                    : 59 b/s
  232. Count of elements           : 432
  233. Stream size                 : 11.6 KiB (0%)
  234. Title                       : Finnish [Full]
  235. Language                    : Finnish
  236. Default                     : No
  237. Forced                      : No

  238. Text #14
  239. ID                          : 17
  240. Format                      : UTF-8
  241. Codec ID                    : S_TEXT/UTF8
  242. Codec ID/Info               : UTF-8 Plain Text
  243. Duration                    : 26 min 45 s
  244. Bit rate                    : 56 b/s
  245. Count of elements           : 432
  246. Stream size                 : 11.2 KiB (0%)
  247. Title                       : Dutch [Full]
  248. Language                    : Dutch
  249. Default                     : No
  250. Forced                      : No

  251. Text #15
  252. ID                          : 18
  253. Format                      : UTF-8
  254. Codec ID                    : S_TEXT/UTF8
  255. Codec ID/Info               : UTF-8 Plain Text
  256. Duration                    : 26 min 45 s
  257. Bit rate                    : 56 b/s
  258. Count of elements           : 431
  259. Stream size                 : 11.0 KiB (0%)
  260. Title                       : Norwegian [Full]
  261. Language                    : Norwegian
  262. Default                     : No
  263. Forced                      : No

  264. Text #16
  265. ID                          : 19
  266. Format                      : UTF-8
  267. Codec ID                    : S_TEXT/UTF8
  268. Codec ID/Info               : UTF-8 Plain Text
  269. Duration                    : 26 min 40 s
  270. Bit rate                    : 102 b/s
  271. Count of elements           : 430
  272. Stream size                 : 20.0 KiB (0%)
  273. Title                       : Bulgarian [Full]
  274. Language                    : Bulgarian
  275. Default                     : No
  276. Forced                      : No

  277. Text #17
  278. ID                          : 20
  279. Format                      : UTF-8
  280. Codec ID                    : S_TEXT/UTF8
  281. Codec ID/Info               : UTF-8 Plain Text
  282. Duration                    : 26 min 45 s
  283. Bit rate                    : 99 b/s
  284. Count of elements           : 433
  285. Stream size                 : 19.6 KiB (0%)
  286. Title                       : Greek [Full]
  287. Language                    : Greek
  288. Default                     : No
  289. Forced                      : No

  290. Text #18
  291. ID                          : 21
  292. Format                      : UTF-8
  293. Codec ID                    : S_TEXT/UTF8
  294. Codec ID/Info               : UTF-8 Plain Text
  295. Duration                    : 26 min 45 s
  296. Bit rate                    : 83 b/s
  297. Count of elements           : 433
  298. Stream size                 : 16.4 KiB (0%)
  299. Title                       : Hebrew [Full]
  300. Language                    : Hebrew
  301. Default                     : No
  302. Forced                      : No

  303. Text #19
  304. ID                          : 22
  305. Format                      : UTF-8
  306. Codec ID                    : S_TEXT/UTF8
  307. Codec ID/Info               : UTF-8 Plain Text
  308. Duration                    : 26 min 45 s
  309. Bit rate                    : 96 b/s
  310. Count of elements           : 433
  311. Stream size                 : 18.9 KiB (0%)
  312. Title                       : Arabic [Full]
  313. Language                    : Arabic
  314. Default                     : No
  315. Forced                      : No

  316. Text #20
  317. ID                          : 23
  318. Format                      : UTF-8
  319. Codec ID                    : S_TEXT/UTF8
  320. Codec ID/Info               : UTF-8 Plain Text
  321. Duration                    : 26 min 45 s
  322. Bit rate                    : 57 b/s
  323. Count of elements           : 436
  324. Stream size                 : 11.3 KiB (0%)
  325. Title                       : Romanian [Full]
  326. Language                    : Romanian
  327. Default                     : No
  328. Forced                      : No

  329. Text #21
  330. ID                          : 24
  331. Format                      : UTF-8
  332. Codec ID                    : S_TEXT/UTF8
  333. Codec ID/Info               : UTF-8 Plain Text
  334. Duration                    : 26 min 45 s
  335. Bit rate                    : 157 b/s
  336. Count of elements           : 434
  337. Stream size                 : 30.9 KiB (0%)
  338. Title                       : Thai [Full]
  339. Language                    : Thai
  340. Default                     : No
  341. Forced                      : No

  342. Text #22
  343. ID                          : 25
  344. Format                      : UTF-8
  345. Codec ID                    : S_TEXT/UTF8
  346. Codec ID/Info               : UTF-8 Plain Text
  347. Duration                    : 26 min 45 s
  348. Bit rate                    : 67 b/s
  349. Count of elements           : 436
  350. Stream size                 : 13.3 KiB (0%)
  351. Title                       : Korean [Full]
  352. Language                    : Korean
  353. Default                     : No
  354. Forced                      : No

  355. Text #23
  356. ID                          : 26
  357. Format                      : UTF-8
  358. Codec ID                    : S_TEXT/UTF8
  359. Codec ID/Info               : UTF-8 Plain Text
  360. Duration                    : 26 min 45 s
  361. Bit rate                    : 60 b/s
  362. Count of elements           : 439
  363. Stream size                 : 11.8 KiB (0%)
  364. Title                       : Chinese (Simplified) [Full]
  365. Language                    : Chinese
  366. Default                     : No
  367. Forced                      : No

  368. Text #24
  369. ID                          : 27
  370. Format                      : UTF-8
  371. Codec ID                    : S_TEXT/UTF8
  372. Codec ID/Info               : UTF-8 Plain Text
  373. Duration                    : 26 min 45 s
  374. Bit rate                    : 60 b/s
  375. Count of elements           : 436
  376. Stream size                 : 11.8 KiB (0%)
  377. Title                       : Chinese (Traditional) [Full]
  378. Language                    : Chinese
  379. Default                     : No
  380. Forced                      : No

  381. Text #25
  382. ID                          : 28
  383. Format                      : UTF-8
  384. Codec ID                    : S_TEXT/UTF8
  385. Codec ID/Info               : UTF-8 Plain Text
  386. Duration                    : 2 s 433 ms
  387. Bit rate                    : 88 b/s
  388. Count of elements           : 1
  389. Stream size                 : 27.0 Bytes (0%)
  390. Title                       : Japanese [Forced]
  391. Language                    : Japanese
  392. Default                     : No
  393. Forced                      : Yes

  394. Text #26
  395. ID                          : 29
  396. Format                      : UTF-8
  397. Codec ID                    : S_TEXT/UTF8
  398. Codec ID/Info               : UTF-8 Plain Text
  399. Duration                    : 26 min 43 s
  400. Bit rate                    : 94 b/s
  401. Count of elements           : 503
  402. Stream size                 : 18.5 KiB (0%)
  403. Title                       : Japanese [SDH]
  404. Language                    : Japanese
  405. Default                     : No
  406. Forced                      : No
复制代码









百度云

购买主题 本主题需向作者支付 500 魔力 才能浏览
您需要登录后才可以回帖 登录 | 立即注册

本版积分规则

QQ|E-MAIL:[email protected]|小黑屋|电视剧之家 |网站地图

GMT+8, 2020-1-26 17:00

Powered by Discuz! X3.4

© 2001-2017 Comsenz Inc.

快速回复 返回顶部 返回列表