电视剧之家

 找回密码
 立即注册
搜索
查看: 95|回复: 2

[2016][无台标][港剧:城寨英雄 全28集][720P-AMZN版/46G][粤语 英文软字幕][MKV][陈展鹏/胡定欣]

[复制链接]
发表于 2019-12-17 18:20:52 | 显示全部楼层 |阅读模式


◎译  名 A Fist Within Four Walls
◎片  名 城寨英雄
◎年  代 2016
◎产  地 中国香港
◎类  别 剧情 / 动作
◎语  言 粤语
◎上映日期 2016-08-01(中国香港)
◎IMDb评分  7.5/10 from 19 users
◎IMDb链接  https://www.imdb.com/title/tt7616752
◎豆瓣评分 8.1/10 from 8196 users
◎豆瓣链接 https://movie.douban.com/subject/26381346/
◎集  数 28
◎片  长 43分钟
◎导  演 文伟鸿 Weihong Wen
◎编  剧 叶天成 Tin-Shing Yip / 黎倩仪 Steffie Lai
◎主  演 陈展鹏 Ruco Chan
       胡定欣  Nancy Wu Ting-yan
       袁伟豪 Wai-Ho Yung
       吴家乐 Carlo Ng Ka-Lok
       伍允龙 Philip Ng
       元秋 Qiu Yuen
       刘佩玥 Moon Lau Pui Yuet
       唐诗咏 Natalie Tong
       林子善 Lam tse Sin
       王君馨 Grace Wong
       张国强 Kwok Keung Cheung
       林伟 Vincent Lam
       张颖康 Wing-Hong Cheung
       何启南 Kai-Nam Ho
       欧瑞伟 Jimmy Au Siu Wai
       文伟鸿 Weihong Wen
       林颖彤 Bella Lam
       邵卓尧 Cheuk-Yiu Siu
       谭凯琪 Zoie Tam
       曾健明 Kin-Ming Tsang


◎标  签 TVB | 港剧 | 香港 | 动作 | 功夫 | 热血 | 电视剧 | 2016

◎简  介  

  故事发生在五十年代末的九龙城寨,左勾拳(陈展鹏 饰)和段迎风(袁伟豪 饰)的父亲均为名震千里的八极拳宗师,哪知道一场阴谋使得段迎风失去了父亲,而左勾拳的父亲则沦为了杀人凶手含冤自尽,左勾拳亦因此和妹妹失散,离开了九龙城寨,前往澳门谋生。
  一晃眼十五年过去,已经长大成人的左勾拳回到了九龙城寨这片伤心地,只为了寻找妹妹的下落,哪知道此处早已经物是人非,冯春美(吴家乐 饰)、柯万长(张国强 饰)和福寿金(林伟 饰)三大黑恶势力头目三足鼎立一手遮天,令九龙城寨的居民们终日生活在恐惧之中。正直的左勾拳向三人发起了挑战,他的勇气亦感染了段迎风,两人再度联手,组成了九龙城寨街坊福利会,惩恶扬善,行侠仗义。
  1. Video
  2. ID : 1
  3. Format : AVC
  4. Format/Info : Advanced Video Codec
  5. Format profile : [email protected]
  6. Format settings : CABAC / 4 Ref Frames
  7. Format settings, CABAC : Yes
  8. Format settings, Reference frames : 4 frames
  9. Codec ID : V_MPEG4/ISO/AVC
  10. Duration : 43 min 16 s
  11. Bit rate mode : Constant
  12. Bit rate : 6 000 kb/s
  13. Width : 1 280 pixels
  14. Height : 720 pixels
  15. Display aspect ratio : 16:9
  16. Frame rate mode : Constant
  17. Frame rate : 25.000 FPS
  18. Color space : YUV
  19. Chroma subsampling : 4:2:0
  20. Bit depth : 8 bits
  21. Scan type : Progressive
  22. Bits/(Pixel*Frame) : 0.260
  23. Stream size : 1.73 GiB (96%)
  24. Language : Chinese
  25. Default : Yes
  26. Forced : No
  27. Color range : Limited
  28. Color primaries : BT.709
  29. Transfer characteristics : BT.709
  30. Matrix coefficients : BT.709

  31. Audio
  32. ID : 2
  33. Format : E-AC-3
  34. Format/Info : Enhanced AC-3
  35. Commercial name : Dolby Digital Plus
  36. Codec ID : A_EAC3
  37. Duration : 43 min 16 s
  38. Bit rate mode : Constant
  39. Bit rate : 224 kb/s
  40. Channel(s) : 2 channels
  41. Channel layout : L R
  42. Sampling rate : 48.0 kHz
  43. Frame rate : 31.250 FPS (1536 SPF)
  44. Compression mode : Lossy
  45. Stream size : 69.3 MiB (4%)
  46. Title : Chinese
  47. Language : Chinese
  48. Service kind : Complete Main
  49. Default : Yes
  50. Forced : No

  51. Text
  52. ID : 3
  53. Format : UTF-8
  54. Codec ID : S_TEXT/UTF8
  55. Codec ID/Info : UTF-8 Plain Text
  56. Duration : 41 min 57 s
  57. Bit rate : 75 b/s
  58. Count of elements : 751
  59. Stream size : 23.1 KiB (0%)
  60. Title : English (SDH)
  61. Language : English
  62. Default : Yes
  63. Forced : No
复制代码






游客,如果您要查看本帖隐藏内容请回复
匿名
匿名  发表于 3 天前
支持陈展鹏
您需要登录后才可以回帖 登录 | 立即注册

本版积分规则

QQ|E-MAIL:[email protected]|小黑屋|电视剧之家 |网站地图

GMT+8, 2020-1-19 13:07

Powered by Discuz! X3.4

© 2001-2017 Comsenz Inc.

快速回复 返回顶部 返回列表